Skip to content

[聲音檔]檔案分段…我好懶,我想用cue檔!

歡迎在下方留言區討論

Helium Audio Splitter,可以分割聲音的免費軟體,支援cue檔分割,
本文講的就是這個cue檔怎麼用~
不想看廢話的請直接將捲軸捲到文末謝謝~
關於cue檔…
似乎大部分都是在聽網路音樂譬如APE格式的人在用的…
偏偏我這個人其實不怎麼聽音樂,通常電腦開著卻是靜音要嗎沒開喇叭
偶爾打開的喇叭忘了關會被突來的Messenger訊息聲音嚇一跳
這種人到底怎麼會跟cue檔扯上關係?又用cue檔來做什麼呢?
當然是…分割音檔啊… !!!
譬如把手上補習班上課的錄音檔分成20分鐘一段這樣
手上的隨身聽通常不是聽音樂用的
在公車或捷運的時間聽,聽完一段刪一段,
我的眼睛很差,討厭盯著螢幕,更討厭在搖搖晃晃的車上看螢幕
尤其偶爾要倒回去重聽也不會因為想重廳的地方正好在在1.5小時的最後一分鐘就得把前面1.5小時重聽一次咩~
總之為了達上述需求,我找到「Helium Audio Splitter」這個軟體
教學請參考重灌狂人
其實這個軟體在我用來還是不少缺點…譬如每一段的分段編號後面都是Unknown artist – Unknown title
沒有自動抓原本的檔名…只好自己再用批次命名orz…
自動分段還得手動設定開始跟結束點也有一點點麻煩…不過已經頗方便了
只有96kbps以上能選也是讓我傻了一下,
因為錄音都用32或64…分段完檔案反而大了兩三倍@@~
再壓縮又怕反而有噪音…有點不適合用來歸檔,
不過聽完就刪的話就不壓縮也無所謂了
碎碎念了很多,但果然我還是好懶好懶啊…我想用cue來分段啦~~
當然我有查到cue檔可以做啥之類的…(見[教學]音波檔的整合及CUE檔的分析編輯應用)
1.想把代表一整張cd的ape檔分成一首一首個別的檔–
2.有代表一整張的ape檔,可是沒有cue檔(或者附的cue檔牛頭不對馬嘴)–
3.一整張的原始cd太小,用一張CDR燒太浪費
4.不想在連貫的兩個wav檔歌曲中間插入gap–
還有CUE是什么文件格式?
关于音频CUE文件出错的若干处理
說明都滿詳細的
不過以上都是廢話…對我來說我只想寫個最講單的cue檔方便每次分段快速使用
所以所有非必要的行數~都~不~寫~啦~~
一個簡略但還標準的cue檔大概長這個樣子,右邊括號中的是我的測試結果
===================================================
PERFORMER “演出者”(Helium Audio Splitter根本沒抓它,寫了也沒用)
TITLE “專輯名稱”(音檔分割後,這字會出現在音樂詳細資訊的專輯欄位,但有時只出現前半段)
FILE “2008.mp3” MP3(Helium Audio Splitter並沒有在認這行的對應位置,你可以把切A歌的cue檔拿來切B歌,或許某些效果時會很好用吧)
TRACK 01 AUDIO(必須)
TITLE “歌名”(必須,這行砍了會出錯,此外引號內的字會用來做為分割後的聲音檔案檔名一部份)
PERFORMER “這首歌的演出者”(必須,這行砍了會抓不到,引號內的字會作為檔名一部份)
INDEX 01 00:00:00(必須)
TRACK 02 AUDIO
TITLE “”
PERFORMER “”
INDEX 01 32:04:95
TRACK 03 AUDIO
TITLE “”
PERFORMER “”
INDEX 01 64:09:90
===================================================
試驗結果發現由於Helium Audio Splitter並沒有在認cue檔的指定對應檔案
所以就算前面加上FILE “2011.mp3” MP3,但你正開著的卻是2008.mp3也不會怎樣
另外,並不知道有沒限定cue的編碼,但是我用的是ANSI,所以ANSI卻是絕對可以吃的~
精簡過後只要留下以下的內容就可以了,看你要切幾段囉~
要切很多段等長的話,懶惰一點可以丟進Excel…會幫你跑序號的…可以少改幾個字哈
===================================================
TRACK 01 AUDIO
TITLE “”
PERFORMER “”
INDEX 01 00:00:00
TRACK 02 AUDIO
TITLE “”
PERFORMER “”
INDEX 01 32:04:95
TRACK 03 AUDIO
TITLE “”
PERFORMER “”
INDEX 01 64:09:90
===================================================
當然!這只限定給Helium Audio Splitter使用…
其他的行數漏了的話我可不確定在別的軟體會不會出問題…
另外…這是在win7測試的,切出來的檔案播放沒有問題,
但copy到XP去的時候就無法撥放了…結果又用轉檔軟體轉了一次才能撥(mp3→mp3)
不過畢竟免費的轉檔軟體很好找…分割的軟體就不是那麼好找了
有找到一款MP3 Splitter & Joiner,只吃mp3,試用是10天
到頭來轉檔軟體還是少不了….
所以各位看倌就自己斟酌使用吧…
如果有更好用的切割軟體歡迎分享啊~^^
(私心希望可以設定到32kbps以下…不然像現在我的32kbps檔案切完就變成三倍大了T_T…)
P.S.同樣是google到的一句話「INDEX 02 – 99 是给数据CD(如SVCD)使用的,Audio CD 只有 INDEX 00 和 01 」
參考:http://wiki.hydrogenaudio.org/index.php?title=Cuesheet

© 2011, Chaneswin. 如發現留有早期非原創作品可以留言回報喔~感謝您的幫忙 🙂


文章如有幫助,先按讚,再分享,歡迎贊助哦!  

歡迎在下方留言區討論